#TITLE:Rainy Sakura;
#SUBTITLE:;
#ARTIST:F.I.R.;
#TITLETRANSLIT:Rainy Sakura;
#SUBTITLETRANSLIT:;
#ARTISTTRANSLIT:F.I.R.;
#CREDIT:;
#BANNER:Rainy Sakura-bn.png;
#BACKGROUND:Rainy Sakura-bg.png;
#LYRICSPATH:;
#CDTITLE:pm4cd.png;
#MUSIC:Rainy Sakura.mp3;
#OFFSET:-0.040;
#SAMPLESTART:81.450;
#SAMPLELENGTH:20.000;
#SELECTABLE:YES;
#BPMS:0.000=120.010;
#STOPS:;
#BGCHANGES:;
// cache tags:
#FIRSTBEAT:0.250;
#LASTBEAT:530.750;
#SONGFILENAME:Songs/Music V.I.P ^_^/Rainy Sakura/Rainy Sakura.sm;
#HASMUSIC:1;
#HASBANNER:1;
#MUSICLENGTH:271.699;
// end cache tags

//---------------dance-single - ----------------
#NOTES:
     dance-single:
     :
     Hard:
     9:
     0.765,0.757,1.000,0.092,1.000,1115.000,285.000,25.000,0.000,35.000:
0000
0000
0000
1001
0000
0000
0000
0000
0000
0000
0000
0000
0100
0000
0000
0010
0000
0000
0000
0000
0000
1000
0000
0000
0000
0000
0000
0000
0000
0010
0000
0000
0000
0000
0000
0000
0000
0001
0000
0000
0000
0000
0000
0000
0000
0100
0000
0000
,
0000
0000
0000
0000
0000
0010
0000
0000
0000
0000
0000
0000
0000
0100
0000
0000
0000
0000
0000
0000
0000
1000
0000
0000
0100
0000
0000
0001
0000
0000
0000
0000
0000
0000
0000
0100
0000
0000
0000
0000
0000
0000
0000
0010
0000
0000
0000
0000
,
0000
0000
0000
0000
0000
0000
0000
0000
0000
0000
0000
0000
0001
0000
0000
0000
0000
0000
0000
0000
0000
0000
0000
0000
0000
0000
0000
0000
0000
0000
0000
0000
0000
0000
0000
0000
0000
0000
0000
0000
0000
0000
0000
0000
0100
0000
0000
0000
0000
0000
0000
0000
0000
0000
0000
0000
0000
0000
0000
0000
0000
0000
0000
0000
0000
0000
0000
0000
0000
0000
0000
0000
0000
0000
0000
0000
1000
0000
0000
0000
0000
0000
0000
0000
0000
0000
0000
0000
0000
0000
0000
0000
0000
0000
0000
0000
0000
0000
0000
0000
0000
0000
0100
0000
0000
0000
0000
0000
0000
0000
0000
0000
0000
0000
0010
0000
0000
0000
0000
0000
0000
0000
0000
0000
0000
0000
0000
0000
0000
0000
0000
0000
1001
0000
0000
0000
0000
0000
0000
0000
0000
0000
0000
0000
0000
0000
0000
0000
0000
0000
0000
0000
0000
0000
0000
0000
0000
0000
0000
0000
0000
0000
0000
0000
0100
0000
0000
0000
0000
0000
0000
0000
0000
0000
0000
0000
0000
0000
0000
0000
0000
0000
0000
0000
0000
0000
0000
0000
0000
0000
0000
0000
,
0000
0010
0000
0000
0000
0000
0000
0000
0000
1000
0000
0000
0000
0000
0000
0000
0000
0100
0000
0000
0000
0000
0000
0000
0000
0001
0000
0000
0000
0000
0000
0000
0000
0000
0000
0000
0010
0000
0000
0100
0000
0000
0000
0000
0000
1000
0000
0000
,
0000
0000
0000
0000
0000
0000
0000
0000
0000
0000
0000
0010
0000
0000
0000
0000
0000
0000
0000
0001
0000
0000
0000
0000
0000
0000
0000
0020
0000
0000
0000
0000
0000
0000
0000
0000
0000
0000
0000
0000
0000
0000
0000
0000
0000
0000
0000
0000
,
0030
0000
0000
1101
0000
0000
0000
0000
0000
0010
0000
0000
0000
0000
0000
1000
0000
0000
0000
0100
0000
0000
0000
0010
0000
0000
0000
0001
0000
0000
0000
0000
0000
0000
0000
0000
0100
0000
0000
0010
0000
0000
0001
0000
0000
0010
0000
0000
,
0000
0100
0000
1000
0000
0010
0000
0100
0010
0001
0000
0100
0000
0010
0000
1000
,
0100
0000
0000
0010
0000
0000
0000
0000
0000
0000
0000
0000
0100
0000
0000
0010
0000
0000
0000
0000
0000
0001
0000
0000
0010
0000
0000
0100
0000
0000
0000
0000
0000
1000
0000
0000
0000
0100
0000
0000
0000
0010
0000
0000
0000
0100
0000
0000
,
0000
0001
0000
0010
0000
0100
0000
1000
0100
0010
0001
0100
0010
0001
0010
0100
,
1000
0101
0000
1010
0000
0101
0000
0010
0100
1000
0000
0100
0000
0011
0000
0100
,
0010
1001
0000
0000
0000
0110
0000
1000
0100
0010
0000
0001
0000
0010
0100
0010
,
0100
1001
0000
0000
0000
0011
0000
1000
0100
0010
0000
0100
0000
1010
0000
0010
,
0100
1001
0000
0000
0000
1010
0000
0100
0010
0001
0000
0010
0000
0100
0010
0001
,
0010
1100
0000
0010
0000
0101
0000
0010
0100
1000
0000
0100
0000
0011
0000
1000
,
0100
0011
0000
0000
0000
1010
0000
0010
0100
1000
0000
0101
0000
0011
0000
0100
,
0000
1010
0000
0000
0000
0100
0000
0001
0010
0100
0000
0010
0000
0101
0000
1000
,
0100
0011
0000
0000
0000
0100
0000
1000
0100
0020
0000
0100
0000
0001
0000
0100
,
1030
0101
0000
0010
0000
0100
0000
1000
0000
0100
0000
0010
0000
0001
0010
0100
,
0000
1010
0000
0100
0010
0001
0000
0100
0000
0010
0000
1000
0000
0010
0000
0000
,
0000
0100
0000
0001
0010
0100
0000
0010
0000
0001
0000
0100
0000
1000
0000
0000
,
0000
0010
0000
1000
0100
0010
0000
0100
0000
0001
0000
1000
0000
0010
0000
0000
,
0000
0100
0000
0010
0100
1000
0000
0010
0000
0001
0000
0100
0000
1000
0000
0000
,
0000
0101
0000
0000
0000
0000
0000
1010
0000
0101
0000
0000
0000
0010
0000
0100
,
0000
1001
0000
0100
0010
0001
0000
0010
0000
0100
0000
0010
0000
1000
0000
0000
,
0000
0101
0000
0010
0000
0100
0000
1000
0000
0010
0000
0000
0000
0100
0000
1000
,
0100
0011
0000
0000
0000
0100
0000
0000
0000
0001
0010
0100
1000
0011
0000
0000
,
0000
1101
0000
0000
0000
0101
0000
0010
0100
1010
0000
0100
0000
0010
0000
0000
,
0000
1001
0000
0100
0010
0001
0000
0010
0100
1000
0000
0100
0000
0011
0000
0100
,
0000
1010
0000
0100
0000
0010
0000
0001
0010
0100
0000
0010
0000
1100
0000
0000
,
0000
0101
0000
0000
0000
0011
0000
1000
0100
0010
0000
0100
0000
0001
0010
0100
,
0000
1001
0000
0100
0010
0100
0000
0001
0010
1000
0000
0100
0000
0011
0000
0000
,
0000
1010
0000
0100
0010
0001
0000
0010
0100
1000
0000
1010
0000
0101
0000
0010
,
0000
1100
0000
0010
0000
0100
0000
0001
0010
1100
0000
0010
0000
0101
0000
0000
,
0000
1011
0000
0000
0000
1101
0000
0000
0000
0010
0001
0100
0010
0100
1000
0010
,
0000
1101
0000
0000
0110
0000
0000
1011
0000
0000
0000
0010
0100
0010
0100
0010
,
0000
1110
0000
0000
1110
0000
0000
0111
0000
0100
0010
0001
0010
0100
0010
0001
,
0000
1010
0000
0010
0000
0110
0000
0010
0000
1010
0000
1010
0000
0110
0000
1010
,
0000
1001
0000
1000
0000
1100
0000
1000
0000
1001
0000
1001
0000
1100
0000
1001
,
0000
0101
0000
0100
0000
0110
0000
0101
0000
0101
0000
0101
0000
0110
0000
0101
,
0000
1011
0000
0000
0110
0000
0000
1101
0000
1000
0100
0010
0100
0010
0001
0010
,
0100
1010
0000
0000
0000
1001
0000
0000
0100
1000
0000
0011
0000
1100
0000
0000
,
0000
1010
0000
0000
0000
1100
0000
0000
0100
0010
0000
0101
0000
0001
0010
0001
,
0010
1102
0000
0000
0000
1000
0000
0000
0100
0010
0000
1000
0000
0100
0000
0000
,
0003
1100
0000
0000
0000
0010
0000
0000
0100
1000
0000
0101
0000
0100
0010
0100
,
0010
2001
0000
0000
0000
0100
0000
0000
0010
0001
0000
0010
0000
0100
0000
0000
,
3000
0011
0000
0000
0000
1001
0000
0000
0001
0010
0000
1100
0000
0001
0010
0100
,
1000
0210
0000
0000
0000
1000
0000
0010
0001
1000
0000
0010
0000
1000
0010
0001
,
0300
1010
0000
1010
0000
1010
0000
1010
0000
1110
0000
0000
0000
0010
0000
0100
,
0000
1010
0000
0000
0000
0101
0000
0000
0010
0100
0000
1010
0000
0101
0000
0000
,
0000
1001
0000
0000
0000
0110
0000
0000
0100
1000
0000
0011
0000
0100
0010
0100
,
0010
1102
0000
0000
0000
0010
0000
0000
0100
1000
0000
0100
0000
0010
0000
0000
,
0003
1010
0000
0000
0000
0100
0000
0000
0010
0001
0000
1100
0000
0010
0100
0010
,
0100
2001
0000
0000
0000
0010
0000
0000
0010
0001
0000
0010
0000
0001
0000
0000
,
3000
0101
0000
0000
0000
1010
0000
0000
0100
0010
0000
0101
0000
1000
0100
0010
,
0001
1200
0000
0000
0000
0010
0000
0001
0010
1000
0000
0000
0000
0010
0001
0010
,
1300
0011
0000
0011
0000
0011
0000
0011
0000
1101
0000
0010
0100
1000
0100
0010
,
0100
1010
0000
0000
1010
0000
0000
1010
0000
0100
0010
0100
0010
0100
1000
0100
,
0010
2002
0000
0000
0000
0000
0000
0000
0000
0000
0000
0000
0000
0000
0000
0000
,
0000
0000
3103
0010
0000
0000
0000
0000
0000
1000
0100
0000
0000
0000
0000
0000
0000
0001
0010
0000
0000
0000
0000
0000
0000
0100
1000
0000
0000
0000
0000
0000
,
0000
0010
0100
0000
0000
0000
0000
0000
0000
1000
0001
0000
0000
0000
0000
0000
0000
0010
1000
0000
0000
0000
0000
0000
0000
0100
0001
0000
0000
0000
0000
0000
,
0000
0001
1000
0000
0000
0000
0000
0000
0000
0001
0100
0000
0000
0000
0000
0000
0000
1000
0010
0000
0000
0000
0000
0000
0000
0100
0010
0000
0000
0000
0000
0000
,
0000
0100
1000
0000
0000
0000
0000
0000
0000
0010
0001
0000
0000
0000
0000
0000
0000
1000
0001
0000
0000
0000
0000
0000
0000
0000
1100
0000
0010
0000
0100
0000
,
1000
0110
0000
0011
0000
1100
0000
0001
0010
0100
0000
1000
0000
0101
0000
0010
,
0100
1001
0000
0000
0000
1010
0000
0100
0010
0001
0000
0010
0000
0100
0010
0100
,
0010
1001
0000
0000
0000
0110
0000
1000
0100
1010
0000
0010
0000
0011
0000
0100
,
0010
1100
0000
0000
0000
1001
0000
1000
0100
0012
0000
0100
0000
0010
0000
0100
,
1003
0011
0000
0100
0000
1000
0000
0100
0000
0010
0000
0001
0010
0100
0000
1000
,
0000
0011
0000
1000
0100
0010
0000
0100
0000
0010
0000
1000
0000
0010
0000
0001
,
0000
1100
0000
0001
0010
0100
0000
1010
0000
0001
0000
0100
0000
1000
0000
0000
,
0000
0110
0000
0010
0100
1000
0000
0010
0000
0100
0000
0001
0000
1000
0000
0000
,
0000
0100
0000
0001
0010
0100
0000
0001
0000
0010
0000
0100
0000
1000
0100
1000
,
0100
0011
0000
1000
0000
0101
0000
0001
0010
1100
0000
0110
0000
0011
0000
0100
,
0000
1010
0000
0001
0010
0100
0000
0010
0000
1100
0000
0110
0000
0011
0000
0000
,
0000
0101
0000
1000
0000
0010
0000
0001
0000
0101
0000
0110
0000
1010
0000
1000
,
0100
0011
0000
0000
0000
0100
0000
0000
0000
0001
0010
0100
1000
0100
0010
0001
,
0010
2100
0010
0001
0010
0100
0010
0001
0010
0100
0001
0010
0100
0010
0001
0010
,
0100
3020
0000
0000
0000
0000
0000
0100
0000
0000
0000
0000
0000
1000
0100
0001
,
0100
1131
0000
0001
0000
0011
0000
0001
0000
1001
0000
1001
0000
1010
0000
1100
,
0000
0101
0000
0100
0000
0110
0000
0100
0000
0101
0000
0101
0000
0110
0000
1001
,
0000
1010
0000
0100
0000
1100
0000
0011
0000
0011
0000
0011
0000
1001
0000
0110
,
0000
0111
0000
0000
1110
0000
0000
1011
0000
1111
0000
0000
0000
0100
0000
0001
,
0000
1011
0000
0000
0000
1100
0000
0000
1000
0100
0000
0101
0000
0110
0000
0000
,
0000
1001
0000
0000
0000
0110
0000
0000
1000
0100
0000
0011
0000
1000
0010
1000
,
0010
1102
0000
0000
0000
0100
0000
0000
1000
0010
0000
0100
0000
1000
0000
0000
,
0003
0101
0000
0000
0000
0001
0000
0000
0100
0001
0000
0110
0000
1000
0100
0010
,
0100
2011
0000
0000
0000
0100
0000
0000
0001
0010
0000
0100
0000
0001
0000
0000
,
3000
1001
0000
0000
0000
1010
0000
0000
0100
1000
0000
0101
0000
1000
0100
0010
,
0001
1020
0000
0000
0000
0001
0000
1000
0100
0001
0000
0100
0000
0001
0100
1000
,
0030
0110
0000
0110
0000
0110
0000
0110
0000
0111
0000
0000
0000
0100
0000
0010
,
0000
1001
0000
0000
0000
1100
0000
0000
0001
1000
0000
0110
0000
1001
0000
0000
,
0000
0011
0000
0000
0000
1010
0000
0000
0010
1000
0000
0101
0000
0001
0100
0001
,
0100
2011
0000
0000
0000
0001
0000
0000
0001
0010
0000
0100
0000
0001
0000
0000
,
3000
0011
0000
0000
0000
0100
0000
0000
1000
0001
0000
1010
0000
1000
0001
1000
,
0001
2100
0000
0000
0000
0100
0000
0000
0010
0100
0000
0001
0000
0010
0000
0000
,
3000
0110
0000
0000
0000
0011
0000
0000
0010
0001
0000
1100
0000
0001
0010
0100
,
1000
0201
0000
0000
0000
1000
0000
0001
0010
0011
0000
0011
0000
1000
0010
0001
,
0310
1100
0000
1100
0000
1100
0000
1100
0000
1011
0000
0000
0000
0010
0100
0010
,
0001
1010
0000
0100
0000
1000
0000
0100
0010
0001
0000
0100
0000
0010
0000
0001
,
0000
0010
0000
0001
0010
0100
0000
0010
0000
0001
0000
1000
0100
0010
0000
0000
,
0000
1000
0000
0100
0000
0010
0000
0100
0000
0001
0000
0000
0000
0010
0000
0100
,
0000
1000
0000
0000
0000
0010
0000
0001
0000
1000
0100
0010
0001
0010
0100
0010
,
0100
1001
0010
0100
0010
0001
0010
0100
0010
0001
0010
0100
0010
0001
0010
0100
,
0010
1000
0010
0001
0010
1000
0010
0001
0010
1000
0010
0001
0010
1000
0010
0001
,
0010
1100
0000
0010
0000
0101
0000
0010
0000
1001
0000
0100
0000
1000
0100
0010
,
0000
0101
0000
0101
0000
1010
0000
1010
0000
1001
0000
0010
0100
1000
0100
0010
,
0000
1101
0000
0000
0010
0100
0000
0000
1000
0100
0010
0000
0100
0010
0000
0001
,
0010
0001
0000
0010
0000
0100
0000
0010
0100
1000
0000
0010
0000
0100
0000
0010
,
0000
1000
0000
0000
0100
0010
0000
0001
0010
0100
0000
0010
0000
1000
0000
0100
,
0010
0001
0000
0000
0000
0010
0000
0100
1000
0100
0000
0010
0000
0001
0000
0100
,
0000
0001
0000
0000
0100
1000
0000
0100
0010
0001
0000
0000
0010
0100
0000
0010
,
0100
1000
0000
0000
0000
0010
0000
0100
0010
0001
0000
0100
0000
0001
0000
1000
,
0100
0010
0000
0100
0000
0001
0000
0010
0100
1000
0000
0000
0000
0010
0000
0100
,
0010
1001
0000
1001
0000
0110
0000
1001
0000
0001
0010
0100
0000
0001
0010
1000
,
0000
1101
0000
0000
0000
0110
0000
0000
0100
0010
0000
0101
0000
1010
0000
0000
,
0000
0101
0000
0000
0000
0110
0000
0000
1000
0100
0000
0011
0000
0100
0000
1010
,
0000
0102
0000
0000
0000
1010
0000
0000
0100
0010
0000
0100
0000
1000
0000
0000
,
0003
1010
0000
0000
0000
0101
0000
0000
0010
0100
0000
1100
0000
0010
0000
0101
,
0000
2010
0000
0000
0000
0011
0000
0000
0100
0010
0000
0001
0000
0010
0000
0000
,
3000
0101
0000
0000
0000
0110
0000
0000
0010
0100
0000
0011
0000
0100
0000
1001
,
0000
1010
0000
0000
0000
0101
0000
0000
0100
1000
0000
0010
0000
0001
0010
0100
,
1000
0011
0000
0011
0000
1100
0000
1100
0000
0010
0100
1000
0000
0100
0010
0001
,
0010
1100
0000
0010
0000
0101
0000
1000
0100
0010
0000
0100
0000
0011
0000
1000
,
0100
1001
0000
0100
0000
1010
0000
0100
0010
0001
0000
0100
0000
0010
0100
1000
,
0000
0101
0000
0010
0000
1001
0000
0010
0001
1100
0000
0010
0000
0101
0000
0010
,
0100
1001
0000
0010
0000
1100
0000
0100
0010
0001
0000
0010
0000
0100
0010
0100
,
0010
1001
0000
0100
0000
1010
0000
0001
0010
0100
0000
0010
0000
0101
0000
0100
,
1000
0011
0000
0010
0000
0101
0000
1000
0100
0010
0000
0100
0000
0001
0010
0100
,
0000
1001
0000
0000
0000
0010
0000
0100
0010
0001
0000
0100
0000
0001
0010
0100
,
1000
0101
0000
0101
0000
1010
0000
1000
0100
0010
0001
0100
0000
0001
0010
0100
,
0000
2020
0000
0000
0000
0000
0000
0000
0000
0200
0000
0000
0000
0000
0000
0000
,
0000
0002
0000
0000
0000
0000
0000
0000
0000
0000
0000
0000
0000
0000
0000
0000
,
0000
0000
0000
0000
,
0000
0000
0000
0000
0000
0000
0000
0000
0000
0000
0000
3333
0000
0000
0000
0000
;

//---------------dance-single - ----------------
#NOTES:
     dance-single:
     :
     Easy:
     1:
     0.000,0.000,0.000,0.000,0.000,0.000,0.000,0.000,0.000,0.000:
0000
0000
0000
0000
;

//---------------dance-single - Copied from----------------
#NOTES:
     dance-single:
     Copied from:
     Medium:
     1:
     0.000,0.000,0.000,0.000,0.000,0.000,0.000,0.000,0.000,0.000:
0000
0000
0000
0000
;
